Source Code for Me (s-c.me)

Allows you to paste souce code to blogs! Adapted for Twitter! Here is Search Form in case you missed your code.
Tags: TSQL, Created At: 10/24/2016 8:25:47 PMViews:

HTML view:
Copy Source | Copy HTML
  1. REM GENRE Synthpop ### стиль, не обязательно
  2. REM DATE 1984 ### год выпуска, не обязательно
  3. REM DISCID 770A360A ### ID диска - не обязательно
  4. REM COMMENT "ExactAudioCopy v0.99pb4" ### - комментарий, кстати название программы, которая сделала этот cue, не обязательно
  5. PERFORMER "Alphaville" ### - автор, желательно
  6. TITLE "Forever Young" ### - название альбома, не обязательно
  7. FILE "Alphaville - Forever Young.ape" WAVE ### название файла, обязательно
  8. TRACK 01 AUDIO ### - первая дорожка
  9. TITLE "Victory Of Love" ### - название песни, обязательно
  10. PERFORMER "Alphaville"
  11. INDEX 01 00:00:00 ### - место с которого начинается песня в большом файле. лучше чуть чуть захватить и пустого места (паузы)
  12. TRACK 02 AUDIO
  13. TITLE "Summer In Berlin"
  14. PERFORMER "Alphaville"
  15. INDEX 00 04:14:72
  16. INDEX 01 04:17:00
  17. TRACK 03 AUDIO
  18. TITLE "Big In Japan"
  19. PERFORMER "Alphaville"
  20. INDEX 01 09:02:45

Based on Manoli.Net's CodeFormatter. Made by Topbot (c) 2008-2017